HD-AREA wünscht Euch eine besinnliche Weihnachtszeit ;)

DNS SERVER AENDERNum der staatlichen Zensur zu umgehen. Sollten wir von eurem Provider geseprrt werden, nutzt den TOR BROWSER oder ändert euren DNS SERVER.

Filmwünsche können bei uns im Forum abgegeben werden

Wir Speichern Nicht




 
 
 
Top Releases
Constantine.City.of.Demons.T...
Constantine.City.of.Demons.T...
Constantine.City.of.Demons.T...
Mountain.2017.German.DL.DOKU...
Mountain.2017.German.DL.DOKU...
Eleanor.und.Colette.2017.Ger...
Hubert.und.Staller.Eine.scho...
Outrage.Coda.2017.German.AC3...
Sie.nannten.ihn.Jeeg.Robot.2...
Bird.Box.Schliesse.deine.Aug...

Cinedubs
Eho.Echo.German.720p.WEBRip....
Eho.Echo.German.1080p.WEBRip...
Bad.Times.at.the.El.Royale.2...
Bad.Spies.2018.German.DL.AC3...
Aquaman.2018.GERMAN.AC3.MD.7...
Bad.Spies.German.DL.AC3.Dubb...
Bad.Spies.German.DL.AC3.Dubb...
Bad.Times.at.the.El.Royale.G...
Bad.Times.at.the.El.Royale.G...
The.Guilty.German.DL.AC3.Dub...

Neuerscheinungen 2017-18
In.Love.and.War.1996.German....
Der.Teufelsschrei.Evilspeak....
Der.Teufelsschrei.THEATRICAL...
When.Angels.Sleep.2018.Germa...
Hudsucker.Der.grosse.Sprung....
Assault.Anschlag.bei.Nacht.A...
Subconscious.Cruelty.2000.Ge...
How.It.Ends.2018.German.AC3D...
Subconscious.Cruelty.2000.MU...
Welcome.Home.2018.German.DD5...

XXX
MilfHunter.18.12.17.Bridgett...
MatureNL.18.12.14.Marina.T.H...
MilfBody.18.12.16.Sofie.Mari...
ElegantAngel.Lesbian.Workout...
MatureNL.18.12.11.Kiara.Rizz...
MyDirtyMaid.18.12.18.Violet....
NHLPCentral.18.12.17.Michell...
MetArt.18.12.16.Eva.Jude.Rid...
MelenaMariaRya.18.12.09.Sex....
LaurenPhillips.18.04.20.Stri...
Lesbea.18.12.16.Boni.And.Lea...
LaurenPhillips.18.04.27.Laur...
Lustery.E154.Josh.And.Evie.T...
MetArtX.18.12.16.Sade.Mare.I...
MilfsLikeItBig.18.12.17.Arie...
MommysGirl.18.12.18.Cherie.D...
Lets.Play.Hide.The.Meat.In.M...
ElegantAngel.Inkd.Squirt.Vol...
MyFamilyPies.18.12.18.Kacie....
MatureNL.18.12.14.Mence.And....

3D
Limbradur.und.die.Magie.der....
Kaluoka.Hina.Das.Zauberriff....
Limbradur.und.die.Magie.der....
Smallfoot.3D.2018.COMPLETE.B...
Smallfoot.Ein.eisigartiges.A...
Skyscraper.3D.2018.German.DL...
Meg.3D.2018.MULTi.COMPLETE.B...
Meg.3D.2018.German.DL.1080p....
Gans.im.Glueck.3D.2018.MULTi...
The.Art.of.Flight.3D.2011.Ge...
The.End.Of.The.World.3D.2010...
The.First.Avenger.Civil.War....
Die.Unglaublichen.2.2018.3D....
Skyscraper.3D.2018.MULTi.COM...
Ant-Man.And.The.Wasp.3D.2018...

Old_Stuff
Akte.X.S05.German.DTS.DL.108...
Akte.X.S04.German.DTS.DL.108...
Akte.X.S03.German.DTS.DL.108...
Dunkirk.1958.COMPLETE.BLURAY...
Das.Wunder.von.Manhattan.199...
The.Amazing.Spiderman.2.Rise...
Rise.of.the.Predator.2014.Ge...
Detective.Dee.und.das.Geheim...
Detective.Dee.Und.Der.Fluch....
Ghost.Rider.Spirit.of.Vengea...
Species.IV.Das.Erwachen.2007...
Species.IV.Das.Erwachen.2007...
Hotel.Transsilvanien.2012.Ge...
The.Dead.2010.German.DL.1080...
The.Dead.2.India.2013.German...

Filme
Das.Geheimnis.von.Green.Lake...
Die.Fuersten.der.Dunkelheit....
Geheimzentrale.Lissabon.1956...
The.Last.House.on.the.Left.1...
Predators.2010.German.AC3.DL...
A.Perfect.Getaway.2009.UNRAT...
Westworld.S02.COMPLETE.GERMA...
Versprochen.ist.versprochen....
Criminal.Minds.S14.German.DL...
Criminal.Minds.S14.German.DL...
Once.Upon.a.Time.S07.German....
Once.Upon.a.Time.S07.German....
Die.Firma.1993.German.AC3.DL...
The.Boys.from.Brazil.1978.Ge...
Quantico.S03.GERMAN.DL.DUBBE...
Quantico.S03.GERMAN.DUBBED.7...
American.Horror.Story.S08.GE...
American.Horror.Story.S08.GE...
Fuller.House.S01-S03.COMPLET...
Fuller.House.S01-S03.COMPLET...
Fuller.House.S04.COMPLETE.GE...
Fuller.House.S04.COMPLETE.GE...
Die.Medici.Herrscher.von.Flo...
Die.Medici.Herrscher.von.Flo...

 
 
Das.Geheimnis.von.Green.Lake.2003.German.DD51D.DL.1080p.AmazonHD.x256-FuN

Jahr: 2003
Genre: Drama, Komödie
Sprache: Deutsch AC3 | Englisch AC3
Laufzeit: 1h 57mn
Bitrate: 4 075 Kbps
Format: MKV
Größe: 3.34 GiB
Release:

Beschreibung:

Unschuldig wird der junge Stanley zu 18 Monaten Umerziehung im Straflager Camp Green Lake verurteilt, wo er und seine Mithäftlinge Löcher graben müssen. Unerbittlich wacht die eiskalte Campleiterin Walker, die einen vergrabenen Schatz finden will, zusammen mit dem ebenso herzlosen Aufseher Mr. Sir über die Plackerei der Jugendlichen. Langsam freundet sich Stanley mit dem Außenseiter Zero an, der dennoch nicht verhindern kann, dass dieser zu fliehen versucht. Es beginnt eine dramatische Jagd mit überraschendem Ausgang.



Complete name                            : Das.Geheimnis.von.Green.Lake.2003.German.DD51D.DL.1080p.AmazonHD.x256-FuN.mkv
Format                                   : Matroska
Format version                           : Version 4 / Version 2
File size                                : 3.34 GiB
Duration                                 : 1h 57mn
Overall bit rate                         : 4 075 Kbps
Movie name                               : Das.Geheimnis.von.Green.Lake.2003.German.DD51D.DL.1080p.AmazonHD.x264-iND
Encoded date                             : UTC 2018-12-28 00:56:38
Writing application                      : mkvmerge v29.0.0 ('Like It Or Not') 64-bit
Writing library                          : libebml v1.3.6 + libmatroska v1.4.9
DURATION                                 : 01:56:49.002000000
NUMBER_OF_FRAMES                         : 2539
NUMBER_OF_BYTES                          : 72694
_STATISTICS_WRITING_APP                  : mkvmerge v29.0.0 ('Like It Or Not') 64-bit
_STATISTICS_WRITING_DATE_UTC             : 2018-12-28 00:56:38
_STATISTICS_TAGS                         : BPS DURATION NUMBER_OF_FRAMES NUMBER_OF_BYTES

Video
ID                                       : 1
Format                                   : HEVC
Format/Info                              : High Efficiency Video Coding
Format profile                           : Main@L4.0
Codec ID                                 : V_MPEGH/ISO/HEVC
Duration                                 : 1h 57mn
Bit rate                                 : 3 226 Kbps
Width                                    : 1 916 pixels
Height                                   : 1 036 pixels
Display aspect ratio                     : 1.85:1
Frame rate mode                          : Constant
Frame rate                               : 23.976 fps
Color space                              : YUV
Chroma subsampling                       : 4:2:0
Bit depth                                : 8 bits
Bits/(Pixel*Frame)                       : 0.068
Stream size                              : 2.65 GiB (79%)
Writing library                          : x265 2.6:[Linux][GCC 6.4.0][64 bit] 8bit+10bit+12bit
Encoding settings                        : cpuid=1173503 / frame-threads=3 / wpp / no-pmode / no-pme / no-psnr / no-ssim / log-level=2 / input-csp=1 / input-res=1916x1036 / interlace=0 / total-frames=0 / level-idc=0 / high-tier=1 / uhd-bd=0 / ref=3 / no-allow-non-conformance / no-repeat-headers / annexb / no-aud / no-hrd / info / hash=0 / no-temporal-layers / open-gop / min-keyint=24 / keyint=240 / bframes=4 / b-adapt=2 / b-pyramid / bframe-bias=0 / rc-lookahead=20 / lookahead-slices=6 / scenecut=40 / no-intra-refresh / ctu=64 / min-cu-size=8 / no-rect / no-amp / max-tu-size=32 / tu-inter-depth=1 / tu-intra-depth=1 / limit-tu=0 / rdoq-level=0 / dynamic-rd=0.00 / no-ssim-rd / signhide / no-tskip / nr-intra=0 / nr-inter=0 / no-constrained-intra / strong-intra-smoothing / max-merge=2 / limit-refs=3 / no-limit-modes / me=1 / subme=2 / merange=57 / temporal-mvp / weightp / no-weightb / no-analyze-src-pics / deblock=0:0 / no-sao / no-sao-non-deblock / rd=3 / no-early-skip / rskip / no-fast-intra / no-tskip-fast / no-cu-lossless / no-b-intra / no-splitrd-skip / rdpenalty=0 / psy-rd=2.00 / psy-rdoq=0.00 / no-rd-refine / analysis-reuse-mode=0 / no-lossless / cbqpoffs=0 / crqpoffs=0 / rc=crf / crf=22.0 / qcomp=0.60 / qpstep=4 / stats-write=0 / stats-read=0 / ipratio=1.40 / pbratio=1.30 / aq-mode=1 / aq-strength=1.00 / cutree / zone-count=0 / no-strict-cbr / qg-size=32 / no-rc-grain / qpmax=69 / qpmin=0 / no-const-vbv / sar=255 / sar-width / : / sar-height=481:480 / overscan=0 / videoformat=5 / range=0 / colorprim=1 / transfer=1 / colormatrix=1 / chromaloc=0 / display-window=0 / max-cll=0,0 / min-luma=0 / max-luma=255 / log2-max-poc-lsb=8 / vui-timing-info / vui-hrd-info / slices=1 / no-opt-qp-pps / no-opt-ref-list-length-pps / no-multi-pass-opt-rps / scenecut-bias=0.05 / no-opt-cu-delta-qp / no-aq-motion / no-hdr / no-hdr-opt / no-dhdr10-opt / analysis-reuse-level=5 / scale-factor=0 / refine-intra=0 / refine-inter=0 / refine-mv=0 / no-limit-sao / ctu-info=0 / no-lowpass-dct / refine-mv-type=0 / copy-pic=1
Language                                 : German
Default                                  : Yes
Forced                                   : No
DURATION                                 : 01:57:24.454000000
NUMBER_OF_FRAMES                         : 168898
NUMBER_OF_BYTES                          : 2910477641
_STATISTICS_WRITING_APP                  : mkvmerge v29.0.0 ('Like It Or Not') 64-bit
_STATISTICS_WRITING_DATE_UTC             : 2018-12-28 00:56:38
_STATISTICS_TAGS                         : BPS DURATION NUMBER_OF_FRAMES NUMBER_OF_BYTES

Audio #1
ID                                       : 2
Format                                   : AC-3
Format/Info                              : Audio Coding 3
Mode extension                           : CM (complete main)
Format settings, Endianness              : Big
Codec ID                                 : A_AC3
Duration                                 : 1h 57mn
Bit rate mode                            : Constant
Bit rate                                 : 384 Kbps
Channel(s)                               : 6 channels
Channel positions                        : Front: L C R, Side: L R, LFE
Sampling rate                            : 48.0 KHz
Bit depth                                : 16 bits
Compression mode                         : Lossy
Delay relative to video                  : -5ms
Stream size                              : 322 MiB (9%)
Title                                    : AC3 5.1 @ 384 Kbps (DVDRip Dubbed)
Language                                 : German
Default                                  : Yes
Forced                                   : No

Audio #2
ID                                       : 3
Format                                   : AC-3
Format/Info                              : Audio Coding 3
Mode extension                           : CM (complete main)
Format settings, Endianness              : Big
Codec ID                                 : A_AC3
Duration                                 : 1h 57mn
Bit rate mode                            : Constant
Bit rate                                 : 384 Kbps
Channel(s)                               : 6 channels
Channel positions                        : Front: L C R, Side: L R, LFE
Sampling rate                            : 48.0 KHz
Bit depth                                : 16 bits
Compression mode                         : Lossy
Delay relative to video                  : -5ms
Stream size                              : 322 MiB (9%)
Title                                    : AC3 5.1 @ 384 Kbps (WEB-DL Dubbed)
Language                                 : English
Default                                  : No
Forced                                   : No


Download:
Share Online Share OnlineShare OnlineShare Online
 

Kommentare