HD-AREA wünscht Euch eine besinnliche Weihnachtszeit ;)

DNS SERVER AENDERNum der staatlichen Zensur zu umgehen. Sollten wir von eurem Provider geseprrt werden, nutzt den TOR BROWSER oder ändert euren DNS SERVER.

Filmwünsche können bei uns im Forum abgegeben werden

Wir Speichern Nicht




 
 
 
Top Releases
Sie.nannten.ihn.Jeeg.Robot.2...
Bird.Box.Schliesse.deine.Aug...
Being.Mario.Goetze.2018.GERM...
Being.Mario.Goetze.2018.GERM...
Liebe.Bringt.Alles.Ins.Rolle...
Halloween.2018.German.DL.AC3...
Mogli.Legende.des.Dschungels...
Liebe.Bringt.Alles.Ins.Rolle...
Liebe.Bringt.Alles.Ins.Rolle...
Liebe.Bringt.Alles.Ins.Rolle...

Cinedubs
Eho.Echo.German.720p.WEBRip....
Eho.Echo.German.1080p.WEBRip...
Bad.Times.at.the.El.Royale.2...
Bad.Spies.2018.German.DL.AC3...
Aquaman.2018.GERMAN.AC3.MD.7...
Bad.Spies.German.DL.AC3.Dubb...
Bad.Spies.German.DL.AC3.Dubb...
Bad.Times.at.the.El.Royale.G...
Bad.Times.at.the.El.Royale.G...
The.Guilty.German.DL.AC3.Dub...

Neuerscheinungen 2017-18
How.It.Ends.2018.German.AC3D...
Subconscious.Cruelty.2000.MU...
Welcome.Home.2018.German.DD5...
Welcome.Home.2018.German.DD5...
Predator.Upgrade.2018.German...
The.Sun.at.Midnight.2016.Ger...
The.Bet.2006.German.DL.1080p...
The.Bet.2006.German.DL.1080p...
The.Dragon.Unleashed.2019.Ge...
Smallfoot.Ein.eisigartiges.A...

XXX
FreakMobMedia.18.11.28.Adree...
FinishHim.18.12.14.Kitty.Cat...
HotAndMean.18.12.16.Daisy.Ma...
GirlsOutWest.18.12.18.Audrey...
GirlsOutWest.18.12.16.Alicia...
GirlsWay.18.12.16.Ashley.Ada...
GirlsGonePink.18.12.17.Abell...
FiLFExtra.E24.Cameron.Dee.An...
GirlsWay.18.12.17.Chloe.Cher...
FiLFExtra.E26.Amber.White.Am...
FiLFExtra.E22.Alaina.Kristar...
Hegre.18.12.18.A.Day.In.The....
GirlsGoneWild.18.12.14.Naudi...
ElegantAngel.Big.Wet.Interra...
FiLFExtra.E29.Valerie.White....
ElegantAngel.Big.Wet.Interra...
GroupSexGames.18.12.16.Dora....
Hitzefrei.18.12.11.Celina.Da...
HookupHotshot.E171.Emily.Wil...
GirlsOutWest.18.12.17.Kit.Ba...

3D
Limbradur.und.die.Magie.der....
Kaluoka.Hina.Das.Zauberriff....
Limbradur.und.die.Magie.der....
Smallfoot.3D.2018.COMPLETE.B...
Smallfoot.Ein.eisigartiges.A...
Skyscraper.3D.2018.German.DL...
Meg.3D.2018.MULTi.COMPLETE.B...
Meg.3D.2018.German.DL.1080p....
Gans.im.Glueck.3D.2018.MULTi...
The.Art.of.Flight.3D.2011.Ge...
The.End.Of.The.World.3D.2010...
The.First.Avenger.Civil.War....
Die.Unglaublichen.2.2018.3D....
Skyscraper.3D.2018.MULTi.COM...
Ant-Man.And.The.Wasp.3D.2018...

Old_Stuff
Akte.X.S05.German.DTS.DL.108...
Akte.X.S04.German.DTS.DL.108...
Akte.X.S03.German.DTS.DL.108...
Dunkirk.1958.COMPLETE.BLURAY...
Das.Wunder.von.Manhattan.199...
The.Amazing.Spiderman.2.Rise...
Rise.of.the.Predator.2014.Ge...
Detective.Dee.und.das.Geheim...
Detective.Dee.Und.Der.Fluch....
Ghost.Rider.Spirit.of.Vengea...
Species.IV.Das.Erwachen.2007...
Species.IV.Das.Erwachen.2007...
Hotel.Transsilvanien.2012.Ge...
The.Dead.2010.German.DL.1080...
The.Dead.2.India.2013.German...

Filme
Bolt.Ein.Hund.fuer.alle.Fael...
Cherry.Dunkle.Geheimnisse.20...
Beasts.of.the.Southern.Wild....
Frantz.2016.GER.REMUX.1080p....
Earthkiller.2011.German.DL.1...
Schindlers.Liste.1993.GERMAN...
Ekstase.1984.German.DL.1080p...
Ich.kaempfe.um.dich.1945.Ger...
Jalla.Jalla.2000.GERMAN.AC3D...
Pfad.des.Kriegers.2018.Germa...
Pfad.des.Kriegers.2018.Germa...
Der.Grinch.2000.German.DTSHD...
Pfad.des.Kriegers.2018.Germa...
Brawl.in.Cell.Block.99.2017....
In.Darkness.Die.Wahrheit.lie...
In.Darkness.Die.Wahrheit.lie...
Operation.Red.Sea.2018.Germa...
Heavy.Metal.1981.German.DL.1...
Flashback.-.Moerderische.Fer...
Um.Kopf.und.Kragen.1957.Germ...
Die.Braut.aka.The.Bride.1985...
Solange.es.Menschen.gibt.195...
Winchester.73.1950.German.AC...
Poldark.2015.S04.German.DL.D...

 
 
Sie.nannten.ihn.Jeeg.Robot.2015.German.AC3.DL.1080p.BluRay.x265-FuN

Jahr: 2015
Genre: Action, Drama
Sprache: Deutsch AC3 | Englisch AC3
Laufzeit: 1h 58mn
Bitrate: 3 654 Kbps
Format: MKV
Größe: 3.01 GiB
Release:

Beschreibung:

Auf der Flucht vor der Polizei kommt der Kleinkriminelle Enzo mit radioaktivem Abfall in Berührung. Er entwickelt übermenschliche Kräfte, die er konsequent zum eigenen Vorteil nutzt. Als Enzo dabei gefilmt wird, wie er einen Bankautomaten aus der Wand reißt, erlangt er landesweite Berühmtheit und weckt das Interesse des größenwahnsinnigen Mafiabosses Gypsy. Dieser will ihn benutzen, um ganz Rom zu beherrschen. Als Enzo die hübsche und verrückte Alessia trifft, sieht diese in ihm den Manga-Superhelden Jeeg Robot. Sie versucht ihn zu überzeugen, für das Gute zu kämpfen und den Herrn des Feuers zu besiegen…




File size                                : 3.01 GiB
Duration                                 : 1h 58mn
Overall bit rate                         : 3 654 Kbps
Movie name                               : jeegrobot
Encoded date                             : UTC 2018-12-26 10:57:37
Writing application                      : mkvmerge v29.0.0 ('Like It Or Not') 64-bit
Writing library                          : libebml v1.3.6 + libmatroska v1.4.9

Video
ID                                       : 1
Format                                   : HEVC
Format/Info                              : High Efficiency Video Coding
Format profile                           : Main@L4.0
Codec ID                                 : V_MPEGH/ISO/HEVC
Duration                                 : 1h 58mn
Bit rate                                 : 2 813 Kbps
Width                                    : 1 918 pixels
Height                                   : 804 pixels
Display aspect ratio                     : 2.40:1
Frame rate mode                          : Constant
Frame rate                               : 24.000 fps
Color space                              : YUV
Chroma subsampling                       : 4:2:0
Bit depth                                : 8 bits
Bits/(Pixel*Frame)                       : 0.076
Stream size                              : 2.32 GiB (77%)
Writing library                          : x265 2.6:[Linux][GCC 6.4.0][64 bit] 8bit+10bit+12bit
Encoding settings                        : cpuid=1173503 / frame-threads=3 / wpp / no-pmode / no-pme / no-psnr / no-ssim / log-level=2 / input-csp=1 / input-res=1918x804 / interlace=0 / total-frames=0 / level-idc=0 / high-tier=1 / uhd-bd=0 / ref=3 / no-allow-non-conformance / no-repeat-headers / annexb / no-aud / no-hrd / info / hash=0 / no-temporal-layers / open-gop / min-keyint=24 / keyint=240 / bframes=4 / b-adapt=2 / b-pyramid / bframe-bias=0 / rc-lookahead=20 / lookahead-slices=5 / scenecut=40 / no-intra-refresh / ctu=64 / min-cu-size=8 / no-rect / no-amp / max-tu-size=32 / tu-inter-depth=1 / tu-intra-depth=1 / limit-tu=0 / rdoq-level=0 / dynamic-rd=0.00 / no-ssim-rd / signhide / no-tskip / nr-intra=0 / nr-inter=0 / no-constrained-intra / strong-intra-smoothing / max-merge=2 / limit-refs=3 / no-limit-modes / me=1 / subme=2 / merange=57 / temporal-mvp / weightp / no-weightb / no-analyze-src-pics / deblock=0:0 / no-sao / no-sao-non-deblock / rd=3 / no-early-skip / rskip / no-fast-intra / no-tskip-fast / no-cu-lossless / no-b-intra / no-splitrd-skip / rdpenalty=0 / psy-rd=2.00 / psy-rdoq=0.00 / no-rd-refine / analysis-reuse-mode=0 / no-lossless / cbqpoffs=0 / crqpoffs=0 / rc=crf / crf=22.0 / qcomp=0.60 / qpstep=4 / stats-write=0 / stats-read=0 / ipratio=1.40 / pbratio=1.30 / aq-mode=1 / aq-strength=1.00 / cutree / zone-count=0 / no-strict-cbr / qg-size=32 / no-rc-grain / qpmax=69 / qpmin=0 / no-const-vbv / sar=1 / overscan=0 / videoformat=5 / range=0 / colorprim=1 / transfer=1 / colormatrix=1 / chromaloc=0 / display-window=0 / max-cll=0,0 / min-luma=0 / max-luma=255 / log2-max-poc-lsb=8 / vui-timing-info / vui-hrd-info / slices=1 / no-opt-qp-pps / no-opt-ref-list-length-pps / no-multi-pass-opt-rps / scenecut-bias=0.05 / no-opt-cu-delta-qp / no-aq-motion / no-hdr / no-hdr-opt / no-dhdr10-opt / analysis-reuse-level=5 / scale-factor=0 / refine-intra=0 / refine-inter=0 / refine-mv=0 / no-limit-sao / ctu-info=0 / no-lowpass-dct / refine-mv-type=0 / copy-pic=1
Default                                  : Yes
Forced                                   : No
DURATION                                 : 01:58:08.000000000
NUMBER_OF_FRAMES                         : 170109
NUMBER_OF_BYTES                          : 2530973906
_STATISTICS_WRITING_APP                  : mkvmerge v29.0.0 ('Like It Or Not') 64-bit
_STATISTICS_WRITING_DATE_UTC             : 2018-12-26 10:57:37
_STATISTICS_TAGS                         : BPS DURATION NUMBER_OF_FRAMES NUMBER_OF_BYTES

Audio #1
ID                                       : 2
Format                                   : AC-3
Format/Info                              : Audio Coding 3
Mode extension                           : CM (complete main)
Format settings, Endianness              : Big
Codec ID                                 : A_AC3
Duration                                 : 1h 58mn
Bit rate mode                            : Constant
Bit rate                                 : 384 Kbps
Channel(s)                               : 6 channels
Channel positions                        : Front: L C R, Side: L R, LFE
Sampling rate                            : 48.0 KHz
Bit depth                                : 16 bits
Compression mode                         : Lossy
Stream size                              : 324 MiB (11%)
Title                                    : Surround
Language                                 : German
Default                                  : Yes
Forced                                   : No
DURATION                                 : 01:58:06.912000000
NUMBER_OF_FRAMES                         : 221466
NUMBER_OF_BYTES                          : 340171776
_STATISTICS_WRITING_APP                  : mkvmerge v29.0.0 ('Like It Or Not') 64-bit
_STATISTICS_WRITING_DATE_UTC             : 2018-12-26 10:57:37
_STATISTICS_TAGS                         : BPS DURATION NUMBER_OF_FRAMES NUMBER_OF_BYTES

Audio #2
ID                                       : 3
Format                                   : AC-3
Format/Info                              : Audio Coding 3
Mode extension                           : CM (complete main)
Format settings, Endianness              : Big
Codec ID                                 : A_AC3
Duration                                 : 1h 58mn
Bit rate mode                            : Constant
Bit rate                                 : 384 Kbps
Channel(s)                               : 6 channels
Channel positions                        : Front: L C R, Side: L R, LFE
Sampling rate                            : 48.0 KHz
Bit depth                                : 16 bits
Compression mode                         : Lossy
Stream size                              : 324 MiB (11%)
Title                                    : Surround
Language                                 : Italian
Default                                  : No
Forced                                   : No
DURATION                                 : 01:58:06.944000000
NUMBER_OF_FRAMES                         : 221467
NUMBER_OF_BYTES                          : 340173312
_STATISTICS_WRITING_APP                  : mkvmerge v29.0.0 ('Like It Or Not') 64-bit
_STATISTICS_WRITING_DATE_UTC             : 2018-12-26 10:57:37
_STATISTICS_TAGS                         : BPS DURATION NUMBER_OF_FRAMES NUMBER_OF_BYTES



Download:
Share Online Share OnlineShare OnlineShare Online
 

Kommentare